#TITLE:Do You Remember Me;
#SUBTITLE:~AMR re-edit~;
#ARTIST:Jenny;
#TITLETRANSLIT:;
#SUBTITLETRANSLIT:;
#ARTISTTRANSLIT:;
#CREDIT:;
#BANNER:DO YOU REMEMBER ME.png;
#BACKGROUND:DO YOU REMEMBER ME-bg.png;
#LYRICSPATH:;
#CDTITLE:cd.png;
#MUSIC:DO YOU REMEMBER ME.mp3;
#OFFSET:-0.040;
#SAMPLESTART:64.360;
#SAMPLELENGTH:12.000;
#SELECTABLE:YES;
#DISPLAYBPM:150.000;
#BPMS:0.000=150.000,161.000=75.000,162.500=150.000;
#STOPS:;
#BGCHANGES:;
// cache tags:
#FIRSTBEAT:0.000;
#LASTBEAT:211.000;
#SONGFILENAME:Songs/Chilean Keyboard Megapack 3/(AMR) Do you remember me/DO YOU REMEMBER ME.sm;
#HASMUSIC:1;
#HASBANNER:1;
#MUSICLENGTH:85.603;
// end cache tags

//---------------dance-single - MANIAC----------------
#NOTES:
     dance-single:
     MANIAC:
     Challenge:
     11:
     1.000,1.000,0.981,0.280,1.000,551.000,84.000,24.000,0.000,5.000:
1000
0100
0010
0001
0100
0000
0100
0000
0010
1000
0100
0010
0100
1000
0001
0000
,
0100
0010
1000
0001
0010
1000
0010
0001
0100
0010
1000
0100
0010
0001
0100
0010
,
0100
0001
0010
0100
1000
0000
1000
0000
0100
0010
0001
0100
0010
0100
0010
0000
,
1000
0001
0010
0100
1000
0001
0100
0010
1000
0100
0010
0001
0010
0100
1000
0100
,
0011
0000
1000
0000
0000
0000
0100
0000
0000
0000
0010
0000
0000
0000
0001
0000
1000
0001
1000
0001
0100
0000
0001
0000
1000
0000
0001
0000
0010
0000
0100
0000
,
1001
0000
0010
0000
0100
0000
0001
0010
0000
0010
0100
0000
1000
0000
0100
0000
,
0010
0001
0100
0000
0110
0000
0001
1000
0000
0010
0100
0000
0001
0010
0100
1000
,
1001
0000
0100
0000
0010
0000
0001
0100
0000
0100
0010
0000
1000
0000
0100
0000
,
0011
0100
1000
0001
0000
1000
0010
0100
0001
1000
0010
0100
0001
1000
0010
0100
,
1001
0000
0010
0000
0100
0000
0001
0010
0000
0010
0100
0000
0100
0000
0010
0000
,
1100
0010
0001
0000
0100
1000
0100
0001
0000
0001
0100
0000
0010
0000
1000
0000
,
0100
0010
0001
0010
0100
1000
0000
0110
0000
0100
0001
0010
0100
1000
0010
0000
,
0100
0001
0100
0010
1000
0100
0010
0001
1000
0100
0010
0100
1000
0001
1000
0100
,
0220
0330
0001
0000
1000
0000
0110
0000
1001
0000
0010
0000
0100
0000
1000
0000
,
0100
0001
0010
1000
0001
0100
1001
1010
,
1100
0001
0110
1100
0010
0101
0010
1001
,
0100
0000
1000
0000
0011
0000
0100
0000
0010
0000
0001
0000
1000
0010
0100
0001
,
1001
0100
1000
0011
1100
0010
0100
0001
,
1000
0100
0010
0100
1000
0011
1100
0110
,
0011
0100
1010
0110
1000
0101
1000
0011
,
0100
0000
0100
0000
0010
0000
0010
0000
0100
0001
1000
0100
0010
0100
1000
0001
,
2200
3300
0010
0000
1100
0000
0011
0000
0101
0000
0100
0000
1010
0000
0101
0000
,
0010
1001
0100
0011
0200
0000
0320
0000
,
2030
0000
3100
0010
0001
0102
0000
0023
,
0000
0000
0000
0000
0030
0000
0100
0010
0100
0000
1000
0100
0010
0001
1000
0100
,
0011
0000
0100
0000
0010
0000
1000
0000
0100
0000
0010
0001
0000
0001
0100
0000
,
0010
0100
0001
0000
2002
3003
0000
0000
2020
3030
0000
0000
0220
0330
0000
0000
,
0100
0010
1000
0100
0010
0100
1000
0001
0100
0010
0100
0001
1000
0001
0100
0010
,
1001
0000
0000
0000
0101
0000
0000
0000
0100
0100
0100
0100
0100
0100
0100
0100
,
1001
0000
0100
0000
0010
0000
1000
0000
0001
0000
0010
0100
0000
0100
1000
0010
,
0000
0100
0001
1000
0100
0010
0100
1000
0001
0100
0001
1000
0010
0100
1000
0100
,
1001
0010
0101
1000
0011
0100
1100
0001
,
1010
0001
1000
0110
0001
0010
0101
1010
,
1100
0100
0011
0001
1100
0110
1000
0022
,
1000
0000
1000
0000
1033
0000
0101
0110
,
1010
0100
1010
0001
0110
1000
0011
1000
,
0110
0010
0100
1100
0010
0100
0011
0110
,
1001
0100
1010
0100
1001
0110
1000
0220
,
0001
0000
0001
0000
0330
0011
1100
1100
,
0100
0000
0010
0000
0001
0000
0100
0000
0001
0010
0100
1000
0001
0010
0100
1000
,
0022
0033
0000
0000
0000
0000
0000
0000
0000
0000
0000
0000
0000
0000
0000
0000
0100
0000
0000
0000
0000
0000
0000
0000
0001
0000
1000
0000
0001
0000
1000
0000
0001
0000
1000
0000
0001
0000
1000
0000
0200
0000
0000
0000
0300
0000
0000
0000
0000
0000
0000
0000
0000
0000
0000
0000
0010
0000
0000
0000
0000
0000
0000
0000
,
0000
0000
0001
0000
0000
0100
0000
0100
0010
0000
1000
0010
0100
0000
0001
0000
,
0000
0000
0010
0000
0010
0100
0000
0100
1000
0000
0001
0010
0001
0000
1000
0000
,
0000
0000
0001
0000
0000
0100
0000
0100
0010
0000
1000
0001
0010
0100
0010
0001
,
0100
0000
0010
0000
1000
0010
0100
0001
1000
0000
0010
0000
0100
0000
0001
0000
1000
0000
0001
0000
1100
0000
0000
0000
0010
0000
0000
0000
0001
0000
0000
0000
,
0100
0010
0000
0010
0100
0000
0001
0000
1000
0000
0100
0010
0001
0010
0100
1000
,
0001
0100
0000
0100
0010
0000
1000
0010
0100
0001
1000
0000
0110
0000
1001
0000
,
0001
0010
0000
0010
0001
0000
1000
0000
0010
0000
0100
0001
1000
0100
0000
0100
,
0010
0001
0010
0100
1000
0010
0100
0001
1000
0010
0101
0000
0010
0000
1000
0000
,
0100
0010
0000
0010
0100
0000
0010
0000
0001
0000
0100
0010
0100
0000
0001
0000
,
1000
0100
0000
0100
1000
0000
0001
0000
0100
0000
0100
0010
1000
0001
0010
0100
,
0000
0110
0000
0100
0010
0001
0100
0010
1000
0001
0010
0100
1000
0100
0010
0001
,
0100
0000
0010
0000
1000
0001
0010
0100
1000
0000
0010
0000
0100
0000
0001
0000
1000
0000
0220
0000
0000
0000
0000
0000
0330
0000
0000
0000
0000
0000
0000
0000
;
